<?xml version="1.0" standalone="no"?>
<!DOCTYPE svg PUBLIC "-//W3C//DTD SVG 1.1//EN" "http://www.w3.org/Graphics/SVG/1.1/DTD/svg11.dtd" >
<svg xmlns="http://www.w3.org/2000/svg">
<metadata>Generated by @xcom/icon</metadata>
<defs>
<font id="xicons" horiz-adv-x="1024">
<font-face units-per-em="1024" ascent="960" descent="-64" />
<missing-glyph horiz-adv-x="1024" />
<glyph unicode="&#x20;" horiz-adv-x="512" d="" />
<glyph unicode="&#xe900;" glyph-name="account" d="M670.818 428.062c49.783 43.972 81.182 108.289 81.182 179.938 0 132.548-107.452 240-240 240s-240-107.452-240-240c0-71.649 31.397-135.966 81.183-179.938-123.734-59.29-209.183-185.698-209.183-332.062 0-26.509 21.49-48 48-48s48 21.491 48 48c0 150.221 121.778 272 272 272s272-121.779 272-272c0-26.509 21.491-48 48-48s48 21.491 48 48c0 146.364-85.449 272.772-209.182 332.062zM368 608c0 79.529 64.469 144 144 144s144-64.471 144-144c0-79.531-64.469-144-144-144s-144 64.469-144 144z" />
<glyph unicode="&#xe901;" glyph-name="account-filled" d="M670.818 428.062c49.783 43.972 81.182 108.289 81.182 179.938 0 132.548-107.452 240-240 240s-240-107.452-240-240c0-71.649 31.397-135.966 81.183-179.938-123.734-59.29-209.183-185.698-209.183-332.062 0-26.509 21.49-48 48-48 83.412 0 158.833 0 320 0 161.169 0 236.587 0 320 0 26.509 0 48 21.491 48 48 0 146.364-85.449 272.772-209.182 332.062z" />
<glyph unicode="&#xe902;" glyph-name="alert" d="M843.836 318.814c-30.554 50.867-46.784 123.878-46.784 210.995 0 75.903-31.155 148.697-86.609 202.368-55.458 53.671-130.675 83.823-209.101 83.823s-153.642-30.152-209.098-83.823c-55.456-53.671-86.612-126.464-86.612-202.368 0-87.151-16.158-160.128-46.715-210.995-6.235-10.377-9.541-22.157-9.584-34.159s3.177-23.804 9.337-34.223c6.121-10.419 15.006-19.072 25.737-25.062s22.919-9.101 35.306-9.007h127.366c3.493-37.261 21.256-71.91 49.8-97.139 28.544-25.233 65.806-39.223 104.462-39.223 38.66 0 75.921 13.99 104.461 39.223 28.544 25.229 46.31 59.878 49.801 97.139h127.369c12.369-0.073 24.533 3.042 35.247 9.033 10.709 5.986 19.575 14.63 25.69 25.037 6.187 10.402 9.438 22.199 9.425 34.202s-3.285 23.791-9.498 34.18zM501.342 161.852c-16.23-0.004-31.966 5.419-44.54 15.356-12.57 9.933-21.214 23.765-24.461 39.155h138.001c-3.247-15.39-11.887-29.222-24.461-39.155-12.574-9.937-28.309-15.36-44.54-15.356zM243.159 298.133c31.155 61.325 46.961 139.209 46.961 231.676 0 54.217 22.254 106.212 61.865 144.549s93.338 59.874 149.356 59.874c56.021 0 109.743-21.537 149.355-59.874s61.867-90.332 61.867-144.549c0-92.433 15.77-170.351 46.925-231.676h-516.329z" />
<glyph unicode="&#xe903;" glyph-name="arrow-down" d="M807.275 542.059c18.743 18.745 18.743 49.137 0 67.882s-49.139 18.745-67.883 0l-222.059-222.058-222.059 222.059c-18.745 18.745-49.137 18.745-67.883 0s-18.745-49.137 0-67.883l255.962-255.962c0.013-0.013 0.026-0.026 0.038-0.038 2.342-2.342 4.868-4.395 7.531-6.153 18.633-12.301 43.951-10.249 60.352 6.153-0.009-0.009 0.009 0.009 0 0l256 256z" />
<glyph unicode="&#xe904;" glyph-name="arrow-left" d="M595.392 152.725c18.743-18.743 49.139-18.743 67.883 0s18.743 49.139 0 67.883l-222.059 222.059 222.059 222.059c18.743 18.745 18.743 49.137 0 67.883s-49.139 18.745-67.883 0l-255.962-255.962c-0.013-0.013-0.025-0.026-0.038-0.038-2.343-2.342-4.394-4.868-6.151-7.531-12.302-18.633-10.252-43.951 6.151-60.352-0.009 0.009 0.009-0.009 0 0l256-256z" />
<glyph unicode="&#xe905;" glyph-name="arrow-right" d="M407.275 732.608c-18.745 18.745-49.137 18.745-67.882 0s-18.745-49.137 0-67.883l222.058-222.059-222.059-222.059c-18.745-18.743-18.745-49.139 0-67.883s49.137-18.743 67.883 0l256 256c18.743 18.743 18.743 49.139 0 67.883l-256 256z" />
<glyph unicode="&#xe906;" glyph-name="arrow-up" d="M227.392 353.941c-18.745-18.743-18.745-49.139 0-67.883s49.137-18.743 67.883 0l222.059 222.059 222.059-222.059c18.743-18.743 49.139-18.743 67.883 0s18.743 49.139 0 67.883l-256 256c-18.743 18.745-49.139 18.745-67.883 0l-256-256z" />
<glyph unicode="&#xe907;" glyph-name="basket" d="M376.514 796.411c6.861 25.606 33.181 40.803 58.788 33.941 25.604-6.861 40.802-33.181 33.941-58.788l-32.367-120.789h151.245l-32.363 120.789c-6.865 25.606 8.333 51.927 33.937 58.788 25.609 6.861 51.93-8.335 58.79-33.941l39.023-145.635h161.314c71.556 0 124.757-66.181 109.385-136.067l-77.44-352c-11.298-51.354-56.802-87.932-109.385-87.932h-517.899c-52.583 0-98.086 36.578-109.384 87.932l-77.44 352c-15.375 69.885 37.83 136.067 109.384 136.067h161.446l39.023 145.635zM311.768 554.776h-135.724c-10.222 0-17.823-9.455-15.626-19.438l77.44-351.999c1.614-7.339 8.114-12.561 15.626-12.561h517.899c7.514 0 14.012 5.222 15.625 12.561l77.44 352c2.197 9.983-5.402 19.438-15.625 19.438h-135.59l26.355-98.371c6.865-25.604-8.333-51.925-33.941-58.786-25.604-6.861-51.925 8.333-58.786 33.941l-33.015 123.215h-202.691l-33.016-123.215c-6.861-25.609-33.181-40.802-58.788-33.941s-40.803 33.182-33.941 58.786l26.359 98.371z" />
<glyph unicode="&#xe908;" glyph-name="basket-filled" d="M376.514 796.411c6.861 25.606 33.181 40.803 58.788 33.941 25.604-6.861 40.802-33.181 33.941-58.788l-32.367-120.789h151.245l-32.363 120.789c-6.865 25.606 8.333 51.927 33.937 58.788 25.609 6.861 51.93-8.335 58.79-33.941l39.023-145.635h161.314c71.556 0 124.757-66.181 109.385-136.067l-77.44-352c-11.298-51.354-56.802-87.932-109.385-87.932h-517.899c-52.583 0-98.086 36.578-109.384 87.932l-77.44 352c-15.375 69.885 37.83 136.067 109.384 136.067h161.446l39.023 145.635z" />
<glyph unicode="&#xe909;" glyph-name="basket-full" d="M700.143 650.807l38.997 145.621c6.869 25.6 33.195 40.789 58.795 33.92 25.6-6.827 40.832-33.152 33.963-58.752l-32.384-120.789h49.28c71.595 0 124.757-66.176 109.397-136.064l-77.44-352c-11.307-51.371-56.789-87.936-109.355-87.936h-517.932c-52.565 0-98.048 36.565-109.355 87.936l-77.44 352c-15.403 69.888 37.803 136.064 109.355 136.064h47.957l-32.341 120.789c-6.869 25.6 8.32 51.925 33.92 58.752 25.6 6.869 51.925-8.32 58.795-33.92l39.040-145.621h376.748zM773.786 554.807l-33.024-123.221c-6.827-25.6-33.152-40.832-58.752-33.963s-40.832 33.195-33.963 58.795l26.368 98.389h-325.335l26.368-98.389c6.869-25.6-8.32-51.925-33.92-58.795s-51.925 8.363-58.795 33.963l-33.024 123.221h-73.685c-10.197 0-17.792-9.472-15.616-19.456l77.44-352c1.621-7.339 8.107-12.544 15.616-12.544h517.932c7.509 0 13.995 5.205 15.616 12.544l77.44 352c2.176 9.984-5.419 19.456-15.659 19.456h-75.008zM627.098 279.693c0-56.533-45.824-102.4-102.4-102.4-56.533 0-102.359 45.867-102.359 102.4s45.826 102.4 102.359 102.4c56.576 0 102.4-45.867 102.4-102.4z" />
<glyph unicode="&#xe90a;" glyph-name="certified" d="M874.487 832h-724.976c-67.401 0-106.845-23.96-106.845-106.774v-491.856c0-72.687 32.368-105.054 106.845-106.995h390.375l-12.762-61.508c-2.402-14.656 2.445-27.93 12.966-35.503 10.522-7.578 24.636-7.983 37.777-1.058l91.209 48.009c2.543 1.306 9.557 1.306 12.1 0l91.209-48.009c6.238-3.285 12.702-4.919 18.893-4.919 6.848 0 13.363 2.001 18.889 5.978 10.517 7.578 15.364 20.855 12.966 35.507l-12.762 61.504h64.119c90.658 0 106.842 34.308 106.842 106.999v491.852c0 66.63-32.367 106.774-106.846 106.774zM675.127 274.995c-56.017 0-101.594 45.581-101.594 101.598s45.577 101.598 101.594 101.598c56.021 0 101.598-45.581 101.598-101.598s-45.577-101.598-101.598-101.598zM704.452 120.525c-16.99 8.947-41.66 8.947-58.645 0l-64.482-33.937 20.497 157.41c21.743-12.070 46.733-18.965 73.31-18.965s51.567 6.899 73.31 18.965l7.987-48.751c-32.346-0.081-32.341-0.166 0.043-0.247l12.471-108.416-64.491 33.941zM882.816 233.37c0-4.51-3.814-8.324-8.329-8.324h-72.307l-9.126 55.659c-0.034 0.218-0.098 0.427-0.141 0.649 21.103 26.039 33.783 59.187 33.783 95.241 0 83.571-67.994 151.561-151.565 151.561s-151.561-67.989-151.561-151.561c0-36.053 12.676-69.193 33.779-95.241-0.043-0.218-0.102-0.431-0.141-0.649l-9.131-55.701c-32.649 0.009-0.55 0.043 31.539 0.043h-430.106c-4.514 0-8.328 3.814-8.328 8.324v491.856c0 4.514 3.814 8.328 8.328 8.328h724.976c4.514 0 8.329-3.814 8.329-8.328v-491.856zM821.798 614.785c-0.013-19.684-15.983-35.625-35.669-35.625h-566.249c-19.686 0-35.657 15.941-35.667 35.625 0 19.692 15.975 35.666 35.667 35.666l569.918-0.166c17.971-1.83 32-17.043 32-35.5zM495.339 479.305c-0.009-19.678-15.945-35.618-35.627-35.627h-239.832c-19.686 0-35.657 15.94-35.667 35.627 0 19.691 15.975 35.665 35.667 35.665h239.832c19.686-0.009 35.627-15.979 35.627-35.665z" />
<glyph unicode="&#xe90b;" glyph-name="chevron-down" d="M470.477 358.963c8.777-8.772 20.356-13.030 31.851-12.77 1.242 0.030 2.479 0.107 3.708 0.243 9.553 1.028 18.833 5.205 26.155 12.527l116.365 116.365c17.037 17.041 17.037 44.668 0 61.71-17.041 17.041-44.672 17.041-61.713 0l-85.508-85.509-85.508 85.509c-17.041 17.041-44.67 17.041-61.711 0s-17.041-44.669 0-61.71l116.363-116.365z" />
<glyph unicode="&#xe90c;" glyph-name="chevron-left" d="M412.29 489.523c-8.774-8.777-13.030-20.356-12.769-31.851 0.028-1.242 0.108-2.479 0.241-3.708 1.030-9.553 5.206-18.833 12.528-26.155l116.363-116.365c17.041-17.037 44.672-17.041 61.713 0s17.041 44.672 0 61.713l-85.508 85.508 85.508 85.508c17.041 17.041 17.041 44.67 0 61.711s-44.672 17.041-61.713 0l-116.363-116.363z" />
<glyph unicode="&#xe90d;" glyph-name="chevron-right" d="M590.362 427.81c8.772 8.777 13.030 20.356 12.77 31.851-0.030 1.242-0.111 2.479-0.243 3.708-1.028 9.553-5.205 18.833-12.527 26.155l-116.365 116.363c-17.041 17.041-44.668 17.041-61.711 0-17.041-17.041-17.041-44.67 0-61.711l85.506-85.508-85.506-85.508c-17.041-17.041-17.041-44.672 0-61.713 17.043-17.041 44.67-17.041 61.711 0l116.365 116.365z" />
<glyph unicode="&#xe90e;" glyph-name="chevron-up" d="M532.19 537.037c-8.777 8.774-20.356 13.030-31.851 12.77-1.242-0.028-2.479-0.109-3.708-0.241-9.553-1.030-18.833-5.206-26.155-12.528l-116.363-116.365c-17.041-17.041-17.041-44.668 0-61.709s44.67-17.041 61.711 0l85.508 85.508 85.508-85.508c17.041-17.041 44.672-17.041 61.713 0s17.041 44.668 0 61.709l-116.365 116.365z" />
<glyph unicode="&#xe90f;" glyph-name="close" d="M270.523 689.477c18.745 18.745 48.447 19.436 66.34 1.542l171.25-171.249 171.247 171.249c17.894 17.893 47.595 17.203 66.338-1.542 18.748-18.745 19.439-48.447 1.545-66.34l-171.247-171.25 171.247-171.247c17.894-17.894 17.203-47.595-1.545-66.338-18.743-18.748-48.444-19.439-66.338-1.545l-171.247 171.247-171.25-171.247c-17.893-17.894-47.595-17.203-66.34 1.545-18.745 18.743-19.436 48.444-1.542 66.338l171.249 171.247-171.249 171.25c-17.893 17.893-17.202 47.595 1.542 66.34z" />
<glyph unicode="&#xe910;" glyph-name="computing" d="M960 320v384c0 88.366-71.633 160-160 160h-576c-88.366 0-160-71.634-160-160v-384c0-88.367 71.634-160 160-160h-176c-26.51 0-48-21.491-48-48s21.49-48 48-48h928c26.509 0 48 21.491 48 48s-21.491 48-48 48h-176c88.367 0 160 71.633 160 160zM800 768c35.345 0 64-28.654 64-64v-384c0-35.345-28.655-64-64-64h-576c-35.346 0-64 28.655-64 64v384c0 35.346 28.654 64 64 64h576z" />
<glyph unicode="&#xe911;" glyph-name="delete" d="M426.667 192c11.315 0 22.17 4.497 30.17 12.497s12.497 18.854 12.497 30.17v256c0 11.315-4.497 22.17-12.497 30.17s-18.854 12.497-30.17 12.497c-11.316 0-22.168-4.497-30.17-12.497s-12.497-18.854-12.497-30.17v-256c0-11.315 4.495-22.17 12.497-30.17s18.854-12.497 30.17-12.497zM853.333 704h-170.667v42.667c0 33.948-13.487 66.505-37.491 90.51s-56.563 37.49-90.509 37.49h-85.333c-33.946 0-66.505-13.486-90.51-37.49s-37.49-56.562-37.49-90.51v-42.667h-170.667c-11.316 0-22.168-4.495-30.17-12.497s-12.497-18.854-12.497-30.17c0-11.316 4.495-22.168 12.497-30.17s18.854-12.497 30.17-12.497h42.667v-469.333c0-33.946 13.486-66.505 37.49-90.509s56.562-37.491 90.51-37.491h341.333c33.946 0 66.505 13.487 90.509 37.491s37.491 56.563 37.491 90.509v469.333h42.667c11.315 0 22.17 4.495 30.17 12.497s12.497 18.854 12.497 30.17c0 11.316-4.497 22.168-12.497 30.17s-18.854 12.497-30.17 12.497zM426.667 746.667c0 11.316 4.497 22.168 12.497 30.17s18.854 12.497 30.17 12.497h85.333c11.315 0 22.17-4.495 30.17-12.497s12.497-18.854 12.497-30.17v-42.667h-170.667v42.667zM725.333 149.333c0-11.315-4.497-22.17-12.497-30.17s-18.854-12.497-30.17-12.497h-341.333c-11.316 0-22.168 4.497-30.17 12.497s-12.497 18.854-12.497 30.17v469.333h426.667v-469.333zM597.333 192c11.315 0 22.17 4.497 30.17 12.497s12.497 18.854 12.497 30.17v256c0 11.315-4.497 22.17-12.497 30.17s-18.854 12.497-30.17 12.497c-11.315 0-22.17-4.497-30.17-12.497s-12.497-18.854-12.497-30.17v-256c0-11.315 4.497-22.17 12.497-30.17s18.854-12.497 30.17-12.497z" />
<glyph unicode="&#xe912;" glyph-name="deliver" d="M544 800c82.202 0 149.922-61.987 158.972-141.767 19.87 8.849 41.873 13.767 65.028 13.767h32c88.367 0 160-71.634 160-160v-128c0-88.367-71.633-160-160-160 0-53.018-42.982-96-96-96s-96 42.982-96 96c0 4.668 0.333 9.254 0.977 13.743-19.857-8.832-41.843-13.743-64.977-13.743h-192c0-53.018-42.981-96-96-96s-96 42.982-96 96c0 4.386 0.294 8.708 0.864 12.937-56.97 24.491-96.864 81.118-96.864 147.063v256c0 88.366 71.634 160 160 160h320zM704 512v-128c0-35.345 28.655-64 64-64h32c35.345 0 64 28.655 64 64v128c0 35.346-28.655 64-64 64h-32c-35.345 0-64-28.654-64-64zM608 640c0 35.346-28.655 64-64 64h-320c-35.346 0-64-28.654-64-64v-256c0-35.345 28.654-64 64-64h320c35.345 0 64 28.655 64 64v256z" />
<glyph unicode="&#xe913;" glyph-name="dot" d="M349.269 187.221c-14.109 0-25.941 4.779-35.499 14.336s-14.336 21.389-14.336 35.499c0 14.11 4.779 25.941 14.336 35.499s21.39 14.336 35.499 14.336c13.653 0 25.259-4.779 34.816-14.336s14.336-21.389 14.336-35.499c0-14.11-4.779-25.941-14.336-35.499s-21.163-14.336-34.816-14.336zM500.284 187.221c-14.11 0-25.941 4.779-35.499 14.336s-14.336 21.389-14.336 35.499c0 14.11 4.779 25.941 14.336 35.499s21.389 14.336 35.499 14.336c13.653 0 25.259-4.779 34.816-14.336s14.336-21.389 14.336-35.499c0-14.11-4.779-25.941-14.336-35.499s-21.163-14.336-34.816-14.336zM651.294 187.221c-14.106 0-25.941 4.779-35.499 14.336s-14.336 21.389-14.336 35.499c0 14.11 4.779 25.941 14.336 35.499s21.393 14.336 35.499 14.336c13.653 0 25.259-4.779 34.816-14.336s14.336-21.389 14.336-35.499c0-14.11-4.779-25.941-14.336-35.499s-21.163-14.336-34.816-14.336z" />
<glyph unicode="&#xe914;" glyph-name="edit" d="M259.526 238.191h45.417l279.803 279.804-45.419 45.417-279.802-279.802v-45.419zM723.43 565.034l-137.873 136.251 45.414 45.417c12.437 12.436 27.716 18.653 45.841 18.653 18.121 0 33.391-6.218 45.807-18.653l45.414-45.417c12.437-12.436 18.923-27.445 19.465-45.028s-5.406-32.582-17.843-44.995l-46.225-46.228zM676.39 517.184l-343.872-343.872h-137.873v137.873l343.873 343.872 137.873-137.873zM562.035 540.703v0z" />
<glyph unicode="&#xe915;" glyph-name="electronics" d="M192 384v64c0 176.731 143.269 320 320 320s320-143.269 320-320v-64h-32c-35.345 0-64-28.655-64-64v-192c0-35.345 28.655-64 64-64h32c70.694 0 128 57.306 128 128v128c0 23.689-12.868 44.373-32 55.437v72.563c0 229.751-186.249 416-416 416s-416-186.249-416-416v-72.563c-19.13-11.063-32-31.748-32-55.437v-128c0-70.694 57.308-128 128-128h32c35.346 0 64 28.655 64 64v192c0 35.345-28.654 64-64 64h-32z" />
<glyph unicode="&#xe916;" glyph-name="error" d="M474.112 628.54c-0.444 17.978 14.007 32.793 31.991 32.793h25.946c17.984 0 32.439-14.815 31.991-32.793l-5.739-231.412c-0.431-17.357-14.626-31.206-31.987-31.206h-14.473c-17.365 0-31.561 13.85-31.991 31.206l-5.739 231.412zM568.819 261.248c0-26.859-21.969-47.915-49.741-47.915s-49.745 21.056-49.745 47.915c0 26.854 21.973 47.91 49.745 47.91s49.741-21.056 49.741-47.91zM960 448c0 247.424-200.576 448-448 448s-448-200.576-448-448c0-247.424 200.576-448 448-448s448 200.576 448 448zM864 448c0-194.402-157.598-352-352-352-194.404 0-352 157.598-352 352 0 194.404 157.596 352 352 352 194.402 0 352-157.596 352-352z" />
<glyph unicode="&#xe917;" glyph-name="expand" d="M629.333 848c0-26.51 21.491-48 48-48h160c8.836 0 16-7.163 16-16v-160c0-26.51 21.491-48 48-48s48 21.49 48 48v160c0 61.856-50.146 112-112 112h-160c-26.509 0-48-21.49-48-48zM325.333 800c26.51 0 48 21.49 48 48s-21.49 48-48 48h-160c-61.856 0-112-50.144-112-112v-160c0-26.51 21.49-48 48-48s48 21.49 48 48v160c0 8.837 7.163 16 16 16h160zM149.333 272c0 26.509-21.49 48-48 48s-48-21.491-48-48v-160c0-61.854 50.144-112 112-112h160c26.51 0 48 21.491 48 48s-21.49 48-48 48h-160c-8.837 0-16 7.164-16 16v160zM677.333 96c-26.509 0-48-21.491-48-48s21.491-48 48-48h160c61.854 0 112 50.146 112 112v160c0 26.509-21.491 48-48 48s-48-21.491-48-48v-160c0-8.836-7.164-16-16-16h-160z" />
<glyph unicode="&#xe918;" glyph-name="export" d="M535.275 889.941c-18.743 18.745-49.139 18.745-67.883 0l-128-128c-18.745-18.745-18.745-49.137 0-67.883s49.137-18.745 67.883 0l46.059 46.059v-396.118c0-26.509 21.491-48 48-48s48 21.491 48 48v396.118l46.059-46.059c18.743-18.745 49.139-18.745 67.883 0s18.743 49.137 0 67.883l-128 128zM309.333 664c0 17.673-14.327 32-32 32-88.366 0-160-71.634-160-160v-384c0-88.367 71.634-160 160-160h448c88.367 0 160 71.633 160 160v384c0 88.366-71.633 160-160 160-17.673 0-32-14.327-32-32v-32c0-17.673 14.327-32 32-32 35.345 0 64-28.654 64-64v-384c0-35.345-28.655-64-64-64h-448c-35.346 0-64 28.655-64 64v384c0 35.346 28.654 64 64 64 17.673 0 32 14.327 32 32v32z" />
<glyph unicode="&#xe919;" glyph-name="facebook" d="M853.333 832h-682.667c-11.316 0-22.168-4.495-30.17-12.497s-12.497-18.854-12.497-30.17v-682.667c0-11.315 4.495-22.17 12.497-30.17s18.854-12.497 30.17-12.497h367.36v298.667h-99.413v114.347h99.413v85.333c-1.988 20.314 0.495 40.816 7.27 60.069 6.771 19.254 17.677 36.792 31.945 51.386 14.272 14.594 31.561 25.89 50.654 33.097 19.098 7.206 39.539 10.149 59.891 8.621 29.803 0.779 59.618-0.791 89.173-4.693v-102.827h-61.013c-48.213 0-57.6-23.040-57.6-56.747v-73.813h115.2l-14.933-114.773h-100.267v-298.667h194.987c11.315 0 22.17 4.497 30.17 12.497s12.497 18.854 12.497 30.17v682.667c0 11.316-4.497 22.168-12.497 30.17s-18.854 12.497-30.17 12.497z" />
<glyph unicode="&#xe91a;" glyph-name="facebook-circle" d="M1024 448c0 281.6-230.4 512-512 512s-512-230.4-512-512c0-256 185.6-467.2 428.8-505.6v358.4h-128v147.2h128v115.2c0 128 76.8 198.4 192 198.4 57.6 0 115.2-12.8 115.2-12.8v-128h-64c-64 0-83.2-38.4-83.2-76.8v-96h140.8l-25.6-147.2h-121.6v-364.8c256 38.4 441.6 256 441.6 512z" />
<glyph unicode="&#xe91b;" glyph-name="favourite-off" d="M512 592c-48 0-77.517 60.723-77.517 60.723-22.583 30.911-59.509 51.277-101.784 51.277-70.563 0-124.699-55.683-124.699-120.629 0-8.617 1.109-17.569 3.354-27.023l0.781-3.29 0.548-3.337c10.949-66.725 57.384-145.795 126.377-218.162 56.492-59.255 119.91-105.408 172.936-131.375 53.026 25.967 116.45 72.119 172.941 131.375 68.992 72.371 115.409 151.424 126.332 218.129l0.567 3.481 0.828 3.43c2.227 9.286 3.337 18.161 3.337 26.773 0 64.952-54.144 120.629-124.676 120.629-42.287 0-79.206-20.359-101.824-51.297 0 0-29.5-60.703-77.5-60.703zM512 96c-151.725 54.135-363.388 251.315-394.051 438.175-3.757 15.828-5.949 32.248-5.949 49.196 0 119.642 98.809 216.629 220.699 216.629 38.824 0 75.263-9.878 106.913-27.189 28.646-15.667 53.367-37.423 72.388-63.453 19.029 26.029 43.75 47.783 72.393 63.45 31.65 17.313 68.092 27.192 106.931 27.192 121.869 0 220.676-96.987 220.676-216.629 0-16.948-2.193-33.368-5.995-49.196-30.596-186.86-242.304-384.040-394.005-438.175z" />
<glyph unicode="&#xe91c;" glyph-name="favourite-on" d="M912 583.371c0 119.642-98.807 216.629-220.676 216.629-73.984 0-139.268-35.849-179.324-90.642-40.034 54.794-105.34 90.642-179.301 90.642-121.89 0-220.699-96.987-220.699-216.629 0-16.948 2.192-33.368 5.949-49.196 30.663-186.86 242.326-384.040 394.051-438.175 151.701 54.135 363.409 251.315 394.005 438.175 3.802 15.828 5.995 32.248 5.995 49.196z" />
<glyph unicode="&#xe91d;" glyph-name="file-document" d="M835.695 672.529l-194.995 194.995c-4.625 4.626-10.944 7.142-17.237 7.142h-341.249c-40.321 0-73.125-32.804-73.125-73.125v-685.748c0-40.324 32.804-73.126 73.125-73.126h487.502c40.32 0 73.122 32.802 73.122 73.126v539.499c0 6.688-2.833 12.93-7.142 17.238zM647.838 791.445l111.778-111.779h-87.403c-13.44 0-24.375 10.935-24.375 24.375v87.404zM769.715 91.418h-487.502c-13.44 0-24.375 10.935-24.375 24.375v685.748c0 13.44 10.935 24.375 24.375 24.375h316.873v-121.875c0-40.321 32.806-73.125 73.126-73.125h121.877v-515.124c0-13.44-10.935-24.375-24.375-24.375zM672.213 481.417h-243.75c-13.461 0-24.374-10.914-24.374-24.375s10.913-24.375 24.374-24.375h243.75c13.461 0 24.375 10.914 24.375 24.375s-10.914 24.375-24.375 24.375zM672.213 383.915h-243.75c-13.461 0-24.374-10.91-24.374-24.371s10.913-24.375 24.374-24.375h243.75c13.461 0 24.375 10.914 24.375 24.375s-10.914 24.371-24.375 24.371zM672.213 286.417h-243.75c-13.461 0-24.374-10.914-24.374-24.375s10.913-24.375 24.374-24.375h243.75c13.461 0 24.375 10.914 24.375 24.375s-10.914 24.375-24.375 24.375zM330.964 432.666c13.462 0 24.375 10.914 24.375 24.375s-10.913 24.375-24.375 24.375c-13.462 0-24.375-10.914-24.375-24.375s10.913-24.375 24.375-24.375zM330.964 335.168c13.462 0 24.375 10.91 24.375 24.375 0 13.461-10.913 24.371-24.375 24.371s-24.375-10.91-24.375-24.371c0-13.466 10.913-24.375 24.375-24.375zM330.964 237.666c13.462 0 24.375 10.914 24.375 24.375s-10.913 24.375-24.375 24.375c-13.462 0-24.375-10.914-24.375-24.375s10.913-24.375 24.375-24.375z" />
<glyph unicode="&#xe91e;" glyph-name="films" d="M640 448c0 70.694-57.306 128-128 128s-128-57.306-128-128c0-70.694 57.306-128 128-128s128 57.306 128 128zM544 448c0-17.673-14.327-32-32-32s-32 14.327-32 32c0 17.673 14.327 32 32 32s32-14.327 32-32zM512 0c247.424 0 448 200.576 448 448s-200.576 448-448 448c-247.424 0-448-200.576-448-448s200.576-448 448-448zM864 448c0-194.402-157.598-352-352-352-194.404 0-352 157.598-352 352 0 194.404 157.596 352 352 352 194.402 0 352-157.596 352-352z" />
<glyph unicode="&#xe91f;" glyph-name="filter" d="M805.333 720h-346.778c-17.975 37.839-56.544 64-101.222 64s-83.247-26.161-101.222-64h-58.778c-26.51 0-48-21.49-48-48s21.49-48 48-48h58.778c17.975-37.839 56.544-64 101.222-64s83.247 26.161 101.222 64h346.778c26.509 0 48 21.49 48 48s-21.491 48-48 48zM197.333 272c-26.51 0-48-21.491-48-48s21.49-48 48-48h346.778c17.975-37.841 56.546-64 101.222-64s83.247 26.159 101.222 64h58.778c26.509 0 48 21.491 48 48s-21.491 48-48 48h-58.778c-17.975 37.841-56.546 64-101.222 64s-83.247-26.159-101.222-64h-346.778z" />
<glyph unicode="&#xe920;" glyph-name="gaming" d="M324.956 623.997c-16.633 0-30.118-14.327-30.118-32v-32h-30.118c-16.634 0-30.118-14.327-30.118-32.001s13.484-32 30.118-32h30.118v-32c0-17.673 13.484-32 30.118-32s30.118 14.327 30.118 32v32h30.118c16.634 0 30.118 14.327 30.118 32s-13.484 32.001-30.118 32.001h-30.118v32c0 17.673-13.484 32-30.118 32zM686.366 463.996c0-17.673-13.483-32-30.114-32-16.636 0-30.118 14.327-30.118 32s13.483 32 30.118 32c16.631 0 30.114-14.327 30.114-32zM656.252 559.997c16.631 0 30.114 14.327 30.114 32s-13.483 32-30.114 32c-16.636 0-30.118-14.327-30.118-32s13.483-32 30.118-32zM746.603 527.996c0-17.673-13.483-32-30.118-32-16.631 0-30.118 14.327-30.118 32s13.487 32.001 30.118 32.001c16.636 0 30.118-14.327 30.118-32.001zM596.015 495.996c16.631 0 30.118 14.327 30.118 32s-13.487 32.001-30.118 32.001c-16.636 0-30.118-14.327-30.118-32.001s13.483-32 30.118-32zM505.673 799.993c54.797 0 85.022-5.423 107.537-10.647 3.127-0.726 5.897-1.384 8.384-1.974 14.63-3.476 19.439-4.619 30.199-3.622 0 0 1.583 0.339 6.413 1.692l3.529 0.999c4.706 1.338 10.846 3.084 17.408 4.736 17.314 4.361 40.209 8.814 67.46 8.818 41.754 0.007 76.749-11.286 102.938-37.38 25.097-25.006 35.989-57.735 42.185-86.212 4.177-19.217 7.1-41.655 9.762-62.099 1.109-8.515 2.172-16.686 3.264-24.135 4.092-27.956 9.233-52.637 18.509-74.319 39.68-92.749 56.862-175.778 56.051-243.972-0.785-66.641-19.191-126.451-59.221-161.109-43.959-38.059-100.19-34.59-148.915-1.856-39.151 26.3-75.844 72.073-107.725 135.684-3.55-1.054-7.313-2.116-11.298-3.174-33.587-8.922-82.445-17.429-146.487-17.434-64.038 0.004-112.888 8.516-146.476 17.434-3.983 1.058-7.75 2.125-11.299 3.179-31.881-63.612-68.571-109.385-107.722-135.689-48.725-32.73-104.957-36.198-148.917 1.86-40.032 34.654-58.435 94.468-59.224 161.109-0.807 68.194 16.373 151.223 56.054 243.968 9.277 21.685 14.415 46.366 18.51 74.322 1.091 7.45 2.155 15.622 3.264 24.139 2.662 20.444 5.582 42.877 9.761 62.095 6.193 28.477 17.088 61.206 42.184 86.212 26.188 26.094 61.185 37.387 102.936 37.38 27.252-0.005 50.146-4.458 67.462-8.818 6.56-1.652 12.703-3.399 17.409-4.737l3.528-0.999c4.829-1.353 6.411-1.692 6.411-1.692 10.761-0.997 15.57 0.145 30.203 3.622 2.485 0.591 5.253 1.248 8.382 1.974 22.515 5.224 52.742 10.643 107.543 10.643zM170.334 476.126c-35.621-83.255-48.563-152.226-47.961-203.034 0.62-52.361 15.158-78.549 25.95-87.893 6.864-5.943 19.341-11.409 43.559 4.86 26.074 17.515 59.911 58.125 91.891 133.632 5.048 11.917 14.452 21.133 26.040 25.519 11.472 4.343 24.103 3.575 35.030-2.112 0.121-0.060 0.478-0.235 1.057-0.503 1.158-0.538 3.233-1.463 6.225-2.658 5.982-2.381 15.639-5.833 28.976-9.374 26.644-7.078 68.145-14.566 124.576-14.571 56.427 0.004 97.92 7.488 124.561 14.566 13.338 3.541 22.993 6.993 28.975 9.374 2.995 1.195 5.069 2.121 6.225 2.658 0.367 0.171 0.649 0.303 0.832 0.393 0.107 0.055 0.183 0.090 0.226 0.111 10.927 5.687 23.561 6.455 35.029 2.112 11.588-4.382 20.992-13.598 26.039-25.519 31.983-75.507 65.818-116.113 91.891-133.632 24.222-16.269 36.698-10.803 43.558-4.86 10.795 9.344 25.331 35.533 25.954 87.893 0.602 50.807-12.343 119.778-47.962 203.034-18.684 43.674-24.567 89.777-28.945 124.064-0.282 2.218-0.559 4.386-0.832 6.502-2.321 17.951-4.284 33.132-7.539 48.106-4.71 21.662-10.274 32.138-15.957 37.799-4.591 4.573-14.69 11.409-41.114 11.405-17.929-0.003-33.451-2.909-46.639-6.23-5.167-1.301-9.604-2.562-14.135-3.85-1.515-0.43-3.038-0.863-4.604-1.301l-0.201-0.056c-4.881-1.368-13.001-3.643-20.715-4.384-25.929-2.491-44.109 1.957-59.699 5.772-2.283 0.558-4.506 1.103-6.694 1.61-16.401 3.806-40.166 8.436-88.265 8.436-48.094 0-71.859-4.627-88.262-8.433-2.186-0.507-4.412-1.052-6.693-1.61-15.592-3.815-33.77-8.263-59.7-5.772-7.715 0.741-15.834 3.016-20.717 4.384l-0.201 0.056c-1.564 0.438-3.087 0.871-4.599 1.3-4.534 1.288-8.971 2.549-14.138 3.85-13.188 3.321-28.713 6.227-46.637 6.23-26.426 0.004-36.526-6.832-41.116-11.405-5.681-5.661-11.246-16.137-15.956-37.799-3.256-14.974-5.219-30.155-7.54-48.106l-0.833-6.501c-4.375-34.286-10.258-80.39-28.943-124.064z" />
<glyph unicode="&#xe921;" glyph-name="google" d="M887.040 468.915c-0.887 17.178-2.884 34.283-5.973 51.2h-361.387v-149.76h209.067c-4.143-23.817-13.039-46.558-26.163-66.863-13.12-20.305-30.195-37.76-50.21-51.324-25.698-17.139-54.814-28.493-85.333-33.28-30.327-5.521-61.406-5.521-91.733 0-37.346 7.932-72.173 24.922-101.412 49.472-29.239 24.555-51.996 55.915-66.267 91.328-2.105 4.446-3.957 9.003-5.547 13.653-16.645 48.243-16.645 100.668 0 148.907 11.681 34.154 30.935 65.222 56.32 90.881 31.119 32.089 71.065 54.215 114.773 63.573 37.316 7.998 76.036 6.531 112.64-4.267 31.095-9.55 59.473-26.369 82.773-49.067l70.4 70.827c12.8 12.373 25.6 24.747 37.547 37.547-35.695 33.513-77.777 59.487-123.733 76.373-88.768 32.592-186.441 31.285-274.303-3.671s-159.739-101.104-201.856-185.769c-15.38-30.499-26.574-62.934-33.28-96.428-14.038-69.359-8.637-141.248 15.607-207.731s66.388-124.975 121.779-169.015c41.398-32.073 88.857-55.437 139.52-68.693 64.588-15.991 132.104-15.991 196.693 0 60.668 12.864 116.629 42.15 161.775 84.668 45.15 42.513 77.743 96.619 94.225 156.399 13.606 49.118 18.372 100.258 14.080 151.040z" />
<glyph unicode="&#xe922;" glyph-name="gradecircle" d="M512 0c247.424 0 448 200.576 448 448s-200.576 448-448 448c-247.424 0-448-200.576-448-448s200.576-448 448-448z" />
<glyph unicode="&#xe923;" glyph-name="hamburger" d="M82.824 832c-37.425 0-67.765-30.339-67.765-67.765s30.339-67.765 67.765-67.765h858.353c37.424 0 67.765 30.339 67.765 67.765s-30.341 67.765-67.765 67.765h-858.353zM15.059 448c0 37.425 30.339 67.765 67.765 67.765h587.294c37.424 0 67.765-30.339 67.765-67.765s-30.341-67.765-67.765-67.765h-587.294c-37.425 0-67.765 30.339-67.765 67.765zM15.059 131.765c0 37.424 30.339 67.765 67.765 67.765h858.353c37.424 0 67.765-30.341 67.765-67.765s-30.341-67.765-67.765-67.765h-858.353c-37.425 0-67.765 30.341-67.765 67.765z" />
<glyph unicode="&#xe924;" glyph-name="home" d="M521.792 748.193c-5.764 4.462-13.82 4.462-19.584 0l-272-210.476c-3.916-3.030-6.208-7.703-6.208-12.652v-364.604c0-8.836 7.163-16 16-16h544c8.836 0 16 7.164 16 16v364.604c0 4.949-2.291 9.622-6.208 12.652l-272 210.476zM443.456 824.116c40.363 31.23 96.725 31.23 137.088 0l272-210.476c27.409-21.211 43.456-53.918 43.456-88.576v-364.604c0-61.854-50.146-112-112-112h-544c-61.856 0-112 50.146-112 112v364.604c0 34.658 16.047 67.365 43.458 88.576l271.998 210.476z" />
<glyph unicode="&#xe925;" glyph-name="info" d="M513.067 565.333c26.509 0 48 21.49 48 48s-21.491 48-48 48c-26.509 0-48-21.49-48-48s21.491-48 48-48zM513.067 517.333c-22.093 0-40-17.907-40-40v-208c0-22.093 17.907-40 40-40s40 17.907 40 40v208c0 22.093-17.907 40-40 40zM960 448c0 247.424-200.576 448-448 448s-448-200.576-448-448c0-247.424 200.576-448 448-448s448 200.576 448 448zM864 448c0-194.402-157.598-352-352-352-194.404 0-352 157.598-352 352 0 194.404 157.596 352 352 352 194.402 0 352-157.596 352-352z" />
<glyph unicode="&#xe926;" glyph-name="instagram" d="M511.991 645.129c-38.985 0-77.099-11.561-109.514-33.221s-57.681-52.446-72.601-88.465c-14.92-36.019-18.823-75.652-11.217-113.89s26.38-73.361 53.947-100.928c27.568-27.571 62.691-46.345 100.929-53.948 38.238-7.607 77.871-3.703 113.89 11.217 36.019 14.916 66.803 40.183 88.465 72.602 21.658 32.414 33.22 70.524 33.22 109.513 0 52.279-20.766 102.417-57.737 139.385-36.966 36.967-87.104 57.735-139.383 57.735zM511.991 320.009c-25.314 0-50.065 7.505-71.113 21.572-21.050 14.063-37.456 34.057-47.144 57.442-9.688 23.39-12.223 49.126-7.284 73.958 4.939 24.828 17.13 47.637 35.031 65.537 17.9 17.901 40.709 30.092 65.537 35.031 24.832 4.939 50.569 2.404 73.958-7.284 23.386-9.688 43.379-26.094 57.442-47.144 14.067-21.047 21.572-45.798 21.572-71.113 0-33.95-13.487-66.505-37.491-90.509s-56.559-37.491-90.509-37.491zM895.991 606.302c-0.798 31.919-6.852 63.489-17.92 93.44-10.236 25.612-25.685 48.815-45.372 68.133s-43.174 34.33-68.975 44.080c-29.952 11.066-61.521 17.121-93.44 17.92-42.667 0-54.187 0-158.293 0s-117.333 0-158.293 0c-31.919-0.799-63.489-6.854-93.44-17.92-25.406-9.998-48.481-25.12-67.787-44.426s-34.429-42.381-44.426-67.787c-11.066-29.951-17.121-61.521-17.92-93.44 0-42.667 0-54.187 0-158.293s0-117.333 0-158.293c0.799-31.919 6.854-63.488 17.92-93.44 9.998-25.408 25.12-48.482 44.426-67.789 19.306-19.302 42.381-34.428 67.787-44.425 29.827-11.797 61.4-18.573 93.44-20.053 42.667 0 54.187-2.133 158.293-2.133s117.333 0 158.293 2.133c31.919 0.798 63.488 6.852 93.44 17.92 25.408 9.997 48.482 25.118 67.789 44.425 19.302 19.307 34.428 42.381 44.425 67.789 12.028 30.498 18.807 62.814 20.053 95.573 0 42.667 2.133 54.187 2.133 158.293s-2.133 117.333-2.133 158.293zM826.871 292.702c-1.506-24.474-6.98-48.538-16.213-71.253-6.566-16.243-16.333-30.997-28.723-43.383-12.386-12.39-27.14-22.157-43.383-28.723-22.886-8.209-46.946-12.676-71.253-13.227-42.667 0-52.907-2.133-155.307-2.133s-114.773 0-155.307 2.133c-24.308 0.55-48.367 5.018-71.253 13.227-16.242 6.566-30.996 16.333-43.384 28.723-12.388 12.386-22.156 27.14-28.723 43.383-8.211 22.886-12.677 46.946-13.227 71.253 0 42.667 0 52.907 0 155.307s0 114.773 0 155.307c0.55 24.308 5.016 48.367 13.227 71.253 6.566 16.242 16.335 30.996 28.723 43.384s27.142 22.156 43.384 28.723c22.886 8.211 46.946 12.677 71.253 13.227 42.667 0 52.907 0 155.307 0s114.773 0 155.307 0c24.307-0.55 48.367-5.016 71.253-13.227 16.243-6.566 30.997-16.335 43.383-28.723 12.39-12.388 22.157-27.142 28.723-43.384 8.209-22.886 12.676-46.946 13.227-71.253 0-42.667 2.133-52.907 2.133-155.307s0.427-114.773-1.28-155.307h2.133zM716.791 698.889c-9.114 0-18.022-2.703-25.6-7.766s-13.483-12.26-16.973-20.68c-3.486-8.42-4.399-17.685-2.62-26.624 1.775-8.939 6.165-17.149 12.608-23.594 6.447-6.444 14.656-10.833 23.595-12.611s18.206-0.866 26.624 2.622c8.418 3.488 15.616 9.393 20.681 16.972s7.765 16.487 7.765 25.601c0 12.221-4.855 23.942-13.495 32.583-8.644 8.642-20.365 13.497-32.585 13.497z" />
<glyph unicode="&#xe927;" glyph-name="linkedin" d="M838.4 831.994h-652.8c-7.452 0.113-14.854-1.243-21.782-3.991s-13.247-6.834-18.596-12.024c-5.349-5.19-9.623-11.384-12.578-18.226s-4.533-14.2-4.644-21.652v-656.215c0.111-7.45 1.69-14.81 4.644-21.649 2.955-6.844 7.229-13.035 12.578-18.227 5.349-5.188 11.668-9.276 18.596-12.023s14.33-4.105 21.782-3.994h652.8c7.454-0.111 14.852 1.246 21.781 3.994s13.248 6.835 18.598 12.023c5.346 5.193 9.621 11.383 12.574 18.227 2.957 6.839 4.535 14.199 4.646 21.649v656.215c-0.111 7.452-1.69 14.81-4.646 21.652-2.953 6.842-7.228 13.036-12.574 18.226-5.35 5.19-11.669 9.276-18.598 12.024s-14.327 4.104-21.781 3.991zM355.413 177.485h-112.213v364.802h112.213v-364.802zM300.8 593.487c-17.918 0.113-35.064 7.31-47.695 20.020s-19.719 29.901-19.719 47.82c-0.118 8.846 1.552 17.624 4.909 25.809s8.332 15.607 14.627 21.823c6.295 6.215 13.78 11.096 22.007 14.348s17.026 4.81 25.87 4.579c16.898-1.348 32.668-9.012 44.168-21.466s17.886-28.783 17.886-45.734c0-16.951-6.386-33.281-17.886-45.735s-27.27-20.118-44.168-21.465zM787.2 180.898h-115.2v179.2c0 42.667 0 98.987-60.587 98.987s-67.413-47.787-67.413-92.587v-182.613h-112.213v358.402h105.813v-47.789h2.987c11.477 18.526 27.494 33.818 46.537 44.419 19.038 10.603 40.469 16.169 62.263 16.17 115.2 0 137.813-76.802 137.813-175.789v-198.4z" />
<glyph unicode="&#xe928;" glyph-name="location" d="M512 448c53.018 0 96 42.982 96 96s-42.982 96-96 96-96-42.981-96-96c0-53.018 42.982-96 96-96zM832 537.143c0 180.518-143.27 326.857-320 326.857s-320-146.339-320-326.857c0-244.518 297.451-505.143 320-505.143s320 260.625 320 505.143zM736 537.143c0-87.914-56.235-192.179-130.278-284.006-33.165-41.135-66.837-75.981-93.722-100.907-26.884 24.926-60.557 59.772-93.723 100.907-74.043 91.827-130.277 196.092-130.277 284.006 0 129.428 102.197 230.857 224 230.857 121.805 0 224-101.429 224-230.857z" />
<glyph unicode="&#xe929;" glyph-name="location-target" d="M511.949-19.213c-12.087 0-22.229 4.083-30.421 12.245s-12.271 18.304-12.245 30.421v42.667c-88.888 9.954-165.161 46.75-228.82 110.379s-100.452 139.904-110.379 228.821h-42.667c-12.089 0-22.215 4.096-30.379 12.288s-12.26 18.317-12.288 30.379c0 12.087 4.096 22.229 12.288 30.421s18.318 12.275 30.379 12.245h42.667c9.955 88.889 46.763 165.163 110.421 228.822s139.918 100.451 228.777 110.379v42.667c0 12.089 4.096 22.215 12.288 30.379s18.321 12.259 30.379 12.288c12.092 0 22.229-4.096 30.421-12.288s12.275-18.319 12.245-30.379v-42.667c88.892-9.956 165.163-46.763 228.821-110.421s100.454-139.919 110.379-228.779h42.667c12.092 0 22.229-4.096 30.421-12.288s12.275-18.317 12.245-30.379c0-12.087-4.079-22.229-12.245-30.421-8.162-8.192-18.304-12.275-30.421-12.245h-42.667c-9.954-88.887-46.746-165.163-110.379-228.821-63.629-63.659-139.904-100.45-228.821-110.379v-42.667c0-12.087-4.096-22.229-12.288-30.421s-18.317-12.275-30.379-12.245zM511.949 149.321c82.492 0 152.892 29.154 211.2 87.467 58.313 58.313 87.467 128.713 87.467 211.2s-29.154 152.889-87.467 211.2c-58.308 58.311-128.708 87.467-211.2 87.467-82.487 0-152.888-29.156-211.199-87.467s-87.467-128.713-87.467-211.2c0-82.487 29.155-152.887 87.467-211.2s128.711-87.467 211.199-87.467zM511.949 277.321c-46.933 0-87.11 16.713-120.532 50.133s-50.133 73.6-50.133 120.533c0 46.933 16.711 87.111 50.133 120.534s73.599 50.133 120.532 50.133c46.933 0 87.113-16.711 120.533-50.133 33.425-33.423 50.133-73.6 50.133-120.534s-16.708-87.113-50.133-120.533c-33.421-33.421-73.6-50.133-120.533-50.133zM511.949 362.654c23.467 0 43.563 8.35 60.288 25.045s25.075 36.791 25.045 60.288c0 23.467-8.363 43.563-25.088 60.288s-36.804 25.074-60.245 25.045c-23.467 0-43.563-8.363-60.288-25.088s-25.073-36.809-25.044-60.245c0-23.467 8.361-43.563 25.087-60.288s36.809-25.075 60.245-25.045z" />
<glyph unicode="&#xe92a;" glyph-name="lock" d="M786.285 608h-45.714v91.428c0 126.172-102.4 228.572-228.572 228.572s-228.572-102.4-228.572-228.572v-91.428h-45.714c-50.286 0-91.429-41.143-91.429-91.428v-457.141c0-50.285 41.143-91.43 91.429-91.43h548.571c50.285 0 91.43 41.146 91.43 91.43v457.141c0 50.285-41.146 91.428-91.43 91.428zM511.999 196.57c-50.285 0-91.428 41.146-91.428 91.43s41.143 91.428 91.428 91.428c50.286 0 91.428-41.143 91.428-91.428s-41.142-91.43-91.428-91.43zM653.714 608h-283.428v91.428c0 78.172 63.542 141.715 141.714 141.715s141.715-63.543 141.715-141.715v-91.428z" />
<glyph unicode="&#xe92b;" glyph-name="menu" d="M208 720c-26.51 0-48-21.49-48-48s21.49-48 48-48h608c26.509 0 48 21.49 48 48s-21.491 48-48 48h-608zM160 448c0 26.509 21.49 48 48 48h416c26.509 0 48-21.491 48-48s-21.491-48-48-48h-416c-26.51 0-48 21.491-48 48zM160 224c0 26.509 21.49 48 48 48h608c26.509 0 48-21.491 48-48s-21.491-48-48-48h-608c-26.51 0-48 21.491-48 48z" />
<glyph unicode="&#xe92c;" glyph-name="merchandise" d="M590.788 576c0-35.346-28.655-64-64-64s-64 28.654-64 64c0 35.346 28.655 64 64 64s64-28.654 64-64zM527.991 896c31.249 0 57.263-22.393 62.878-52.007 44.919-5.852 97.98-19.598 151.735-50.318 125.717-71.841 150.677-172.947 165.082-231.295l0.013-0.042c0.567-2.301 1.118-4.535 1.66-6.698 9.297-37.197 14.72-98.901 17.387-159.535 2.385-54.246 2.701-111.509 0.858-156.762 3.43-6.848 6.677-13.837 9.69-20.907 11.379-26.697 20.322-56.64 22.293-86.238 1.963-29.431-2.769-63.121-24.354-91.26-16.597-21.632-40.559-25.216-55.471-24.922-14.677 0.29-29.47 4.228-41.762 8.213-19.191 6.221-42.914 16.303-67.273 26.658-6.878 2.923-13.807 5.867-20.702 8.755-66.628 27.9-144.256 56.666-222.029 56.666s-155.398-28.766-222.030-56.666c-6.893-2.889-13.823-5.833-20.701-8.755-24.36-10.355-48.079-20.437-67.273-26.658-12.289-3.985-27.085-7.923-41.76-8.213-14.913-0.294-38.874 3.29-55.471 24.922-21.586 28.139-26.319 61.828-24.356 91.26 1.974 29.598 10.918 59.541 22.294 86.238 2.356 5.53 4.854 11.004 7.47 16.401-2.055 45.922-1.797 105.207 0.668 161.267 2.665 60.634 8.088 122.338 17.387 159.535 0.544 2.174 1.1 4.428 1.671 6.74 14.406 58.348 39.367 159.454 165.080 231.295 54.744 31.284 108.764 44.965 154.2 50.633 5.739 29.457 31.684 51.692 62.818 51.692zM495.991 750.912c-39.812-2.913-88.523-12.662-137.386-40.587-89.862-51.353-106.367-117.941-119.727-171.846l-1.521-6.122c-6.701-26.803-11.945-79.765-14.613-140.467-0.588-13.389-1.043-26.914-1.365-40.337 16.13 11.2 43.876 30.345 85.407 46.285 50.374 19.341 120.146 34.163 221.21 34.163s170.837-14.822 221.21-34.163c39.501-15.159 66.53-33.22 82.957-44.582-0.32 12.86-0.759 25.813-1.327 38.635-2.667 60.702-7.91 113.664-14.613 140.467l-1.519 6.122c-13.363 53.905-29.867 120.493-119.727 171.846-47.885 27.365-95.62 37.275-134.985 40.403v-46.728c0-17.673-14.327-32-32-32s-32 14.327-32 32v46.912zM277.302 273.438c-4.040-2.782-7.981-5.495-11.998-8.111-4.949-3.226-14.933-12.587-27.005-29.197-11.478-15.795-22.711-35.209-31.287-55.33-8.687-20.382-13.786-39.475-14.821-54.993-0.225-3.375-0.249-6.37-0.124-9.028 14.081 4.83 31.103 12.058 52.475 21.129 7.549 3.209 15.648 6.643 24.345 10.287 66.996 28.053 160.326 64.115 259.108 64.115s192.111-36.062 259.11-64.115c8.7-3.644 16.794-7.078 24.346-10.287 21.372-9.071 38.391-16.299 52.471-21.129 0.128 2.658 0.102 5.653-0.124 9.028-1.033 15.518-6.135 34.611-14.818 54.993-8.576 20.122-19.81 39.535-31.287 55.33-12.070 16.61-22.059 25.971-27.008 29.197-4.015 2.615-7.957 5.329-11.998 8.111-16.064 11.055-33.694 23.189-63.885 34.778-37.483 14.387-95.266 27.785-186.807 27.785s-149.326-13.397-186.805-27.785c-30.191-11.588-47.825-23.723-63.889-34.778z" />
<glyph unicode="&#xe92d;" glyph-name="minimize" d="M736 672h176c26.509 0 48-21.49 48-48s-21.491-48-48-48h-160c-61.854 0-112 50.144-112 112v160c0 26.51 21.491 48 48 48s48-21.49 48-48v-176zM288 224h-176c-26.51 0-48 21.491-48 48s21.49 48 48 48h160c61.856 0 112-50.146 112-112v-160c0-26.509-21.49-48-48-48s-48 21.491-48 48v176zM288 672v176c0 26.51 21.49 48 48 48s48-21.49 48-48v-160c0-61.856-50.144-112-112-112h-160c-26.51 0-48 21.49-48 48s21.49 48 48 48h176zM736 224v-176c0-26.509-21.491-48-48-48s-48 21.491-48 48v160c0 61.854 50.146 112 112 112h160c26.509 0 48-21.491 48-48s-21.491-48-48-48h-176z" />
<glyph unicode="&#xe92e;" glyph-name="minus" d="M221.818 496c-25.304 0-45.818-21.491-45.818-48s20.514-48 45.818-48h580.362c25.306 0 45.82 21.491 45.82 48s-20.514 48-45.82 48h-580.362z" />
<glyph unicode="&#xe92f;" glyph-name="mobile" d="M480 736c-17.673 0-32-14.327-32-32s14.327-32 32-32h64c17.673 0 32 14.327 32 32s-14.327 32-32 32h-64zM672 896h-320c-88.366 0-160-71.634-160-160v-576c0-88.367 71.634-160 160-160h320c88.367 0 160 71.633 160 160v576c0 88.366-71.633 160-160 160zM288 736c0 35.346 28.654 64 64 64h320c35.345 0 64-28.654 64-64v-576c0-35.345-28.655-64-64-64h-320c-35.346 0-64 28.655-64 64v576z" />
<glyph unicode="&#xe930;" glyph-name="my-purchases" d="M873.22 676.762l-341.636 151.467c-11.366 5.034-24.427 5.034-35.831-0.039l-341.597-151.427c-17.149-7.63-26.156-22.223-26.156-42.085v-394.379c0-17.148 9.99-32.687 25.605-39.804l341.913-156.267c5.781-2.675 11.994-3.972 18.167-3.972 7.317 0 12.51 1.062 18.999 4.365-0.277-0.115 341.124 155.874 341.124 155.874l0.038 0.038c15.578 7.121 25.566 22.656 25.566 39.765v394.379c0 18.8-9.045 34.494-26.193 42.085zM469.952 152.115l-254.439 116.305v299.472l91.879-43.306c0 0 0 0 0-107.648 0-37.013 11.092-54.635 25.094-59.827 0 0 1.377-1.412 7.67-2.475 26.116-4.369 45.074 15.377 45.074 44.996v89.045l84.722-36.501v-300.062zM811.9 268.42l-254.438-116.305v300.062l254.438 116.305v-300.062zM513.685 528.401l-83.618 37.603 227.652 109.657 90.462-40.079-234.496-107.181zM513.412 739.418l71.505-30.128c2.871-3.54-234.103-107.1-234.103-107.1l-72.528 32.96 235.126 104.268z" />
<glyph unicode="&#xe931;" glyph-name="number" d="M426.667 689.667v-70.997h63.488v-426.665h78.507v497.662h-141.995zM960 448c0 247.424-200.576 448-448 448s-448-200.576-448-448c0-247.424 200.576-448 448-448s448 200.576 448 448zM917.333 448c0-223.859-181.474-405.333-405.333-405.333s-405.333 181.474-405.333 405.333c0 223.86 181.474 405.333 405.333 405.333s405.333-181.474 405.333-405.333z" />
<glyph unicode="&#xe932;" glyph-name="one" d="M404.053 618.667v70.997h141.995v-497.664h-78.507v426.667h-63.488z" />
<glyph unicode="&#xe933;" glyph-name="pause-circle" d="M437.333 288c-22.092 0-40 17.907-40 40v240c0 22.092 17.908 40 40 40 22.093 0 40-17.908 40-40v-240c0-22.093-17.907-40-40-40zM525.333 328c0-22.093 17.907-40 40-40s40 17.907 40 40v240c0 22.092-17.907 40-40 40s-40-17.908-40-40v-240zM501.333 0c-247.424 0-448 200.576-448 448s200.576 448 448 448c247.424 0 448-200.576 448-448s-200.576-448-448-448zM501.333 96c194.402 0 352 157.598 352 352 0 194.404-157.598 352-352 352-194.404 0-352-157.596-352-352 0-194.402 157.596-352 352-352z" />
<glyph unicode="&#xe934;" glyph-name="phone-solid" d="M820.582 280.747c-51.55 44.092-103.868 70.797-154.782 26.773l-30.404-26.607c-22.246-19.315-63.603-109.559-223.515 74.394-159.877 183.721-64.737 212.326-42.458 231.474l30.57 26.641c50.653 44.124 31.534 99.669-4.995 156.847l-22.045 34.633c-36.698 57.044-76.658 94.508-127.442 50.451l-27.44-23.977c-22.445-16.351-85.183-69.499-100.402-170.467-18.316-121.148 39.462-259.881 171.832-412.098 132.204-152.286 261.646-228.774 384.257-227.443 101.901 1.097 163.443 55.778 182.69 75.661l27.537 24.009c50.654 44.023 19.183 88.845-32.401 133.035l-31.002 26.675z" />
<glyph unicode="&#xe935;" glyph-name="play" d="M373.643 755.759c-19.468 14.159-45.234 16.195-66.685 5.272s-34.958-32.96-34.958-57.032v-512c0-24.073 13.507-46.11 34.958-57.033s47.217-8.887 66.685 5.274l352.002 256c16.559 12.045 26.355 31.283 26.355 51.759s-9.796 39.714-26.355 51.759l-352.002 256z" />
<glyph unicode="&#xe936;" glyph-name="play-circle" d="M400.001 589.172v-239.681c0-17.92 7.84-30.985 23.52-39.198s30.986-7.467 45.919 2.24l185.92 118.72c14.187 8.213 21.282 20.907 21.282 38.080s-7.095 29.867-21.282 38.080l-185.92 118.719c-14.933 9.707-30.238 10.453-45.919 2.24s-23.52-21.28-23.52-39.2zM512 21.329c-61.973 0-120.212 11.767-174.719 35.302s-101.92 55.45-142.24 95.74c-40.32 40.32-72.233 87.735-95.738 142.242s-35.273 112.747-35.302 174.72c0 61.973 11.767 120.212 35.302 174.719s55.448 101.92 95.738 142.24c40.32 40.32 87.734 72.233 142.24 95.738s112.746 35.273 174.719 35.302c61.973 0 120.213-11.767 174.72-35.302s101.922-55.448 142.242-95.738c40.32-40.32 72.247-87.734 95.782-142.24s35.29-112.746 35.26-174.719c0-61.973-11.767-120.213-35.302-174.72s-55.45-101.922-95.74-142.242c-40.32-40.32-87.735-72.247-142.242-95.782s-112.747-35.29-174.72-35.26zM512 110.929c99.307 0 183.876 34.901 253.705 104.7s104.73 154.368 104.7 253.705c0 99.306-34.901 183.873-104.7 253.702s-154.368 104.727-253.705 104.698c-99.306 0-183.873-34.899-253.702-104.698s-104.727-154.366-104.698-253.702c0-99.307 34.899-183.876 104.698-253.705s154.366-104.73 253.702-104.7z" />
<glyph unicode="&#xe937;" glyph-name="plus" d="M512 784c26.509 0 48-20.514 48-45.818v-242.182h242.18c25.306 0 45.82-21.491 45.82-48s-20.514-48-45.82-48h-242.18v-242.18c0-25.306-21.491-45.82-48-45.82s-48 20.514-48 45.82v242.18h-242.182c-25.304 0-45.818 21.491-45.818 48s20.514 48 45.818 48h242.182v242.182c0 25.305 21.491 45.818 48 45.818z" />
<glyph unicode="&#xe938;" glyph-name="plus-2x" d="M512 896c35.346 0 64-27.351 64-61.091v-322.909h322.91c33.741 0 61.090-28.654 61.090-64s-27.349-64-61.090-64h-322.91v-322.91c0-33.741-28.654-61.090-64-61.090s-64 27.349-64 61.090v322.91h-322.909c-33.74 0-61.091 28.654-61.091 64s27.351 64 61.091 64h322.909v322.909c0 33.74 28.654 61.091 64 61.091z" />
<glyph unicode="&#xe939;" glyph-name="return-arrow" d="M256 746.667c23.564 0 42.667-19.103 42.667-42.667v-205.129c0-47.13 38.205-85.333 85.333-85.333h321.89l-91.43 89.267c-16.862 16.461-17.182 43.474-0.721 60.335s43.473 17.184 60.335 0.722l166.4-162.463c8.222-8.026 12.86-19.034 12.86-30.528s-4.638-22.498-12.86-30.528l-166.4-162.462c-16.862-16.461-43.874-16.137-60.335 0.721-16.461 16.862-16.141 43.874 0.721 60.335l91.43 89.267h-321.89c-94.257 0-170.667 76.412-170.667 170.667v205.129c0 23.564 19.103 42.667 42.667 42.667z" />
<glyph unicode="&#xe93a;" glyph-name="scan" d="M149.333 704v-128h96v96c0 17.673 14.327 32 32 32h96v96h-128c-53.019 0-96-42.981-96-96zM853.333 192v128h-96v-96c0-17.673-14.327-32-32-32h-96v-96h128c53.018 0 96 42.982 96 96zM373.333 96h-128c-53.019 0-96 42.982-96 96v128h96v-96c0-17.673 14.327-32 32-32h96v-96zM757.333 800h-128v-96h96c17.673 0 32-14.327 32-32v-96h96v128c0 53.019-42.982 96-96 96zM725.333 480h-448v-64h448v64z" />
<glyph unicode="&#xe93b;" glyph-name="search" d="M673.984 207.467l137.408-137.408c18.743-18.743 49.139-18.743 67.883 0s18.743 49.139 0 67.883l-137.408 137.408c44.851 59.076 71.467 132.757 71.467 212.651 0 194.404-157.598 352-352 352-194.404 0-352-157.596-352-352 0-194.402 157.596-352 352-352 79.893 0 153.574 26.615 212.651 71.467zM717.333 488c0-141.385-114.615-256-256-256s-256 114.615-256 256c0 141.385 114.615 256 256 256s256-114.615 256-256z" />
<glyph unicode="&#xe93c;" glyph-name="sell" d="M305.455 555.828c33.325-33.323 87.355-33.323 120.68 0 33.326 33.325 33.326 87.355 0 120.68-33.325 33.325-87.355 33.325-120.68 0s-33.324-87.355 0-120.68zM434.176 866.404l-221.248-20.113c-41.024-3.729-73.528-36.233-77.257-77.257l-20.113-221.246c-2.293-25.219 6.735-50.158 24.643-68.065l449.282-449.28c33.323-33.327 87.351-33.327 120.678 0l241.361 241.357c33.323 33.327 33.323 87.356 0 120.683l-449.284 449.279c-17.907 17.908-42.842 26.936-68.062 24.643zM441.899 781.422l449.28-449.279-241.357-241.361-449.281 449.28 20.113 221.246 221.245 20.113z" />
<glyph unicode="&#xe93d;" glyph-name="sell-filled" d="M502.238 841.761l449.28-449.279c33.327-33.327 33.327-87.356 0-120.683l-241.357-241.357c-33.327-33.327-87.356-33.327-120.678 0l-449.282 449.28c-17.908 17.907-26.936 42.846-24.643 68.065l20.113 221.246c3.729 41.024 36.233 73.528 77.257 77.257l221.248 20.113c25.22 2.293 50.155-6.735 68.062-24.643zM305.455 555.828c33.324-33.323 87.354-33.323 120.679 0 33.326 33.325 33.326 87.355 0 120.68-33.325 33.325-87.355 33.325-120.679 0s-33.325-87.355 0-120.68z" />
<glyph unicode="&#xe93e;" glyph-name="send" d="M620.22 62.191l301.444 753.752c3.127 7.778 3.904 16.304 2.227 24.518s-5.73 15.755-11.661 21.683c-5.926 5.928-13.47 9.983-21.683 11.66s-16.738 0.902-24.516-2.229l-753.754-301.441c-6.561-2.576-12.378-6.745-16.925-12.13s-7.683-11.818-9.123-18.718c-1.44-6.9-1.14-14.051 0.874-20.805s5.677-12.902 10.661-17.886l139.080-139.686c15.118-15.117 39.305-16.93 56.237-3.627l484.362 370.073-370.377-484.061c-13.001-17.233-11.187-41.421 3.93-56.538l139.686-139.081c21.466-21.466 58.351-14.208 69.538 14.515z" />
<glyph unicode="&#xe93f;" glyph-name="share" d="M752 544c79.531 0 144 64.471 144 144s-64.469 144-144 144c-79.531 0-144-64.471-144-144 0-4.696 0.226-9.34 0.666-13.921l-233.936-109.169c-26.127 26.595-62.502 43.090-102.729 43.090-79.529 0-144-64.471-144-144 0-79.531 64.471-144 144-144 37.465 0 71.589 14.306 97.204 37.756l240.396-128.209c-1.054-7.027-1.6-14.225-1.6-21.547 0-79.531 64.469-144 144-144s144 64.469 144 144c0 79.531-64.469 144-144 144-37.466 0-71.59-14.306-97.203-37.756l-240.398 128.209c1.055 7.027 1.601 14.225 1.601 21.547 0 4.698-0.225 9.34-0.664 13.922l233.936 109.168c26.125-26.595 62.502-43.090 102.729-43.090z" />
<glyph unicode="&#xe940;" glyph-name="shop" d="M85.333 704.001c-24.352 0-44.094-19.741-44.094-44.094s19.741-44.094 44.094-44.094h213.333c24.352 0 44.094 19.741 44.094 44.094s-19.742 44.094-44.094 44.094h-213.333zM682.667 192c-141.385 0-256 114.615-256 256s114.615 256 256 256c141.385 0 256-114.615 256-256 0-54.771-17.199-105.523-46.49-147.149l94.076-94.080c17.22-17.22 17.22-45.137 0-62.357s-45.137-17.22-62.357 0l-94.080 94.076c-41.626-29.291-92.378-46.49-147.149-46.49zM682.667 283.43c90.889 0 164.57 73.681 164.57 164.57s-73.681 164.571-164.57 164.571-164.57-73.681-164.57-164.571c0-90.889 73.681-164.57 164.57-164.57zM41.24 233.242c0 24.35 19.741 44.092 44.094 44.092h213.333c24.352 0 44.094-19.742 44.094-44.092 0-24.354-19.742-44.096-44.094-44.096h-213.333c-24.352 0-44.094 19.742-44.094 44.096zM85.333 490.667c-24.352 0-44.094-19.742-44.094-44.092 0-24.354 19.741-44.096 44.094-44.096h128c24.352 0 44.094 19.742 44.094 44.096 0 24.35-19.742 44.092-44.094 44.092h-128z" />
<glyph unicode="&#xe941;" glyph-name="shop-filled" d="M85.333 704.001c-24.352 0-44.094-19.741-44.094-44.094s19.741-44.094 44.094-44.094h213.333c24.352 0 44.094 19.741 44.094 44.094s-19.742 44.094-44.094 44.094h-213.333zM682.667 192c54.771 0 105.523 17.199 147.149 46.49l94.080-94.076c17.22-17.22 45.137-17.22 62.357 0s17.22 45.137 0 62.357l-94.076 94.080c29.291 41.626 46.49 92.378 46.49 147.149 0 141.385-114.615 256-256 256s-256-114.615-256-256c0-141.385 114.615-256 256-256zM41.24 233.242c0 24.35 19.741 44.092 44.094 44.092h213.333c24.352 0 44.094-19.742 44.094-44.092 0-24.354-19.742-44.096-44.094-44.096h-213.333c-24.352 0-44.094 19.742-44.094 44.096zM85.333 490.667c-24.352 0-44.094-19.742-44.094-44.092 0-24.354 19.741-44.096 44.094-44.096h128c24.352 0 44.094 19.742 44.094 44.096 0 24.35-19.742 44.092-44.094 44.092h-128z" />
<glyph unicode="&#xe942;" glyph-name="snapchat" d="M895.991 652.378c0.098 14.313-1.186 28.602-3.84 42.667-2.577 16.773-7.761 33.040-15.36 48.213-8.363 15.811-19.162 30.209-32 42.667-19.516 19.124-43.605 32.932-69.973 40.107-24.516 5.282-49.621 7.29-74.667 5.973h-376.319c-14.507 0-28.587 0-42.667 0-15.407-1.733-30.575-5.167-45.227-10.24-24.285-9.306-46.007-24.259-63.368-43.623s-29.863-42.583-36.472-67.737c-6.114-23.964-8.843-48.666-8.107-73.387v-377.6c0-17.067 0-34.133 3.413-51.2 2.65-17.903 7.972-35.302 15.787-51.627 11.081-21.781 26.812-40.862 46.080-55.893 13.881-11.089 29.63-19.614 46.507-25.173 24.624-7.497 50.207-11.379 75.947-11.52h48.213c116.906 0 234.239 0 351.146 0 15.467 0.273 30.878 1.843 46.080 4.693 28.727 5.367 55.437 18.5 77.227 37.973 25.664 22.242 43.469 52.169 50.773 85.333 4.826 22.14 7.117 44.757 6.827 67.413v4.267c0 0 0 383.573 0 388.693zM793.165 296.964c-4.693-11.52-29.44-20.907-71.68-27.733-3.84 0-5.547-6.827-7.68-17.493 0-4.267-2.133-8.533-3.413-12.8-0.397-1.843-1.421-3.49-2.901-4.659s-3.319-1.783-5.205-1.741h-11.947c-10.381 2.21-20.958 3.354-31.573 3.413-7.586-0.055-15.151-0.768-22.613-2.133-15.667-3.981-30.246-11.418-42.667-21.76-21.261-18.172-48-28.689-75.947-29.867h-6.827c-27.955 1.114-54.72 11.639-75.947 29.867-12.421 10.342-26.999 17.779-42.666 21.76-7.467 1.323-15.030 2.039-22.613 2.133-10.613-0.060-21.193-1.203-31.573-3.413-3.958-0.623-7.989-0.623-11.947 0-1.010-0.183-2.047-0.162-3.048 0.064-1.002 0.222-1.948 0.649-2.784 1.242-0.835 0.597-1.542 1.357-2.080 2.231s-0.894 1.847-1.049 2.863c0 4.267-2.56 8.533-3.413 12.8 0 10.667-3.84 17.067-7.68 17.493-42.667 6.4-66.987 16.213-72.107 27.733 0 0 0 2.56 0 3.84-0.013 1.673 0.588 3.29 1.689 4.548s2.626 2.069 4.285 2.278c33.423 7.095 63.31 25.66 84.48 52.48 12.237 13.525 22.441 28.762 30.293 45.227 2.35 3.785 3.835 8.043 4.352 12.467s0.050 8.909-1.365 13.133c-5.547 12.8-23.467 18.347-35.413 22.187l-7.68 2.56c-10.667 4.267-27.733 12.8-25.6 25.173 1.708 4.557 4.817 8.461 8.879 11.145 4.063 2.679 8.871 4.006 13.734 3.789 2.401 0.405 4.852 0.405 7.253 0 8.675-4.681 18.31-7.309 28.16-7.68 5.998-0.491 11.955 1.344 16.64 5.12 0 5.547 0 11.093 0 16.64-5.568 37.874-3.391 76.485 6.4 113.493 11.686 26.505 30.89 49.001 55.235 64.7s52.758 23.911 81.725 23.62h11.52c28.979 0.346 57.417-7.843 81.771-23.549 24.358-15.706 43.55-38.232 55.189-64.771 9.933-36.979 12.258-75.59 6.827-113.493 0-5.547 0-10.24 0-14.933 4.237-3.379 9.515-5.188 14.933-5.12 9.297 0.93 18.377 3.379 26.88 7.253 2.645 1.348 5.564 2.078 8.533 2.133 3.516-0.094 6.98-0.815 10.24-2.133 3.627-0.832 6.916-2.743 9.434-5.487 2.513-2.743 4.134-6.187 4.646-9.873 0-5.973-4.267-14.507-25.6-23.040l-8.107-2.56c-11.947-3.84-29.867-9.813-34.987-22.613-1.408-4.156-1.869-8.567-1.353-12.924s1.997-8.542 4.339-12.25c10.667-24.585 26.893-46.357 47.403-63.607 20.506-17.25 44.736-29.508 70.784-35.806 1.621-0.213 3.102-1.041 4.134-2.308 1.028-1.271 1.536-2.889 1.412-4.518-0.439-1.882-1.318-3.635-2.56-5.12h0.853z" />
<glyph unicode="&#xe943;" glyph-name="sort" d="M502.43 799.988c-12.646 0.287-25.387-4.396-35.038-14.046l-128-128c-18.745-18.745-18.745-49.137 0-67.883s49.137-18.745 67.883 0l94.059 94.059 94.059-94.059c18.743-18.745 49.139-18.745 67.883 0s18.743 49.137 0 67.883l-128 128c-8.055 8.054-18.261 12.648-28.766 13.78-1.357 0.146-2.718 0.235-4.079 0.266zM663.275 238.059c18.743 18.743 18.743 49.139 0 67.883s-49.139 18.743-67.883 0l-94.059-94.059-94.059 94.059c-18.745 18.743-49.137 18.743-67.883 0s-18.745-49.139 0-67.883l128-128c2.342-2.342 4.868-4.395 7.531-6.153 18.633-12.301 43.951-10.249 60.352 6.153l128 128z" />
<glyph unicode="&#xe944;" glyph-name="star" d="M476.941 805.996c12.745 31.52 57.374 31.52 70.118 0l83.814-207.25c5.419-13.396 17.997-22.534 32.41-23.547l223.006-15.668c33.916-2.383 47.706-44.826 21.67-66.688l-171.209-143.757c-11.063-9.289-15.868-24.077-12.378-38.097l54.012-216.934c8.213-32.994-27.891-59.221-56.73-41.216l-189.623 118.404c-12.258 7.654-27.806 7.654-40.060 0l-189.628-118.404c-28.839-18.005-64.942 8.222-56.728 41.216l54.011 216.934c3.491 14.020-1.313 28.809-12.379 38.097l-171.206 143.757c-26.038 21.862-12.248 64.305 21.668 66.688l223.007 15.668c14.415 1.013 26.992 10.151 32.409 23.547l83.815 207.25z" />
<glyph unicode="&#xe945;" d="M501.333 838.766v-652.654c6.95 0 13.897-1.916 20.023-5.739l189.628-118.404c28.838-18.010 64.943 8.222 56.73 41.216l-54.012 216.934c-3.49 14.020 1.314 28.804 12.378 38.097l171.209 143.757c26.035 21.862 12.245 64.304-21.67 66.687l-223.006 15.669c-14.413 1.013-26.991 10.151-32.41 23.546l-83.814 207.25c-6.374 15.758-20.715 23.638-35.055 23.639z" />
<glyph unicode="&#xe946;" d="M466.27 815.126c6.374 15.761 20.719 23.641 35.063 23.639v-652.654c-6.955 0-13.905-1.911-20.036-5.739l-189.625-118.404c-28.839-18.010-64.942 8.222-56.727 41.216l54.011 216.934c3.491 14.020-1.313 28.804-12.379 38.097l-171.206 143.757c-26.038 21.862-12.247 64.304 21.668 66.687l223.007 15.669c14.415 1.013 26.992 10.151 32.409 23.546l83.816 207.25z" />
<glyph unicode="&#xe947;" glyph-name="store" d="M528 608c26.509 0 48 14.327 48 32s-21.491 32-48 32c-26.509 0-48-14.327-48-32s21.491-32 48-32zM176 800h672c61.854 0 112-50.144 112-112v-480c0-61.854-50.146-112-112-112h-672c-61.856 0-112 50.146-112 112v480c0 61.856 50.144 112 112 112zM160 688v-112h704v112c0 8.837-7.164 16-16 16h-672c-8.837 0-16-7.163-16-16zM160 512v-304c0-8.836 7.163-16 16-16h48v192c0 35.345 28.654 64 64 64h64c35.346 0 64-28.655 64-64v-192h432c8.836 0 16 7.164 16 16v304h-704z" />
<glyph unicode="&#xe948;" glyph-name="success" d="M405.105 307.661c12.216-11.14 30.905-11.14 43.121 0l251.174 229.034c13.918 12.691 13.918 34.6 0 47.291l-4.774 4.353c-12.215 11.139-30.903 11.139-43.119 0l-203.281-185.361c-12.215-11.136-30.905-11.136-43.121 0l-53.944 49.19c-12.216 11.14-30.906 11.14-43.122 0l-4.774-4.352c-13.918-12.693-13.918-34.598 0-47.292l101.841-92.864zM960 448c0 247.424-200.576 448-448 448s-448-200.576-448-448c0-247.424 200.576-448 448-448s448 200.576 448 448zM864 448c0-194.402-157.598-352-352-352-194.404 0-352 157.598-352 352 0 194.404 157.596 352 352 352 194.402 0 352-157.596 352-352z" />
<glyph unicode="&#xe949;" glyph-name="tick" d="M898.278 721.599c18.556-18.932 18.253-49.323-0.678-67.879l-489.74-479.998c-18.665-18.295-48.533-18.295-67.197 0l-214.261 209.997c-18.932 18.556-19.238 48.947-0.681 67.878 18.556 18.935 48.946 19.238 67.879 0.683l180.662-177.067 456.139 447.067c18.935 18.556 49.323 18.251 67.878-0.681z" />
<glyph unicode="&#xe94a;" glyph-name="twitter" d="M753.928 728h107.91l-236.934-268.016 276.814-363.568h-217.229l-170.077 220.938-194.709-220.938h-107.91l251.010 286.659-265.085 344.925h222.624l153.656-201.827 179.93 201.827zM716.16 159.341h59.819l-387.070 508.064h-64.278l391.53-508.064z" />
<glyph unicode="&#xe94b;" glyph-name="twitter-old" d="M838.4 685.22c36.642 21.844 64.090 56.268 77.227 96.853-34.223-20.545-71.761-34.982-110.933-42.667-26.398 28.102-61.316 46.721-99.362 52.977-38.042 6.256-77.086-0.199-111.091-18.368s-61.077-47.037-77.022-82.139c-15.945-35.102-19.878-74.481-11.191-112.044-69.542 3.44-137.585 21.477-199.7 52.939s-116.914 75.644-160.833 129.674c-22.207-38.389-28.964-83.793-18.9-126.985s36.197-80.931 73.086-105.551c-27.251 0.947-53.879 8.409-77.653 21.762 0.22-39.857 13.979-78.457 39.020-109.467s59.877-52.591 98.794-61.201c-25.31-6.95-51.884-7.974-77.653-2.987 11.296-34.304 32.957-64.26 61.997-85.734s64.027-33.408 100.137-34.159c-60.704-51.038-137.030-79.791-216.32-81.493-14.28 0.239-28.531 1.378-42.667 3.413 80.124-51.162 173.308-78.127 268.373-77.653 65.032-0.619 129.549 11.588 189.862 35.917s115.238 60.305 161.638 105.873c46.4 45.568 83.366 99.836 108.783 159.697 25.417 59.866 38.784 124.147 39.343 189.181v29.013c33.408 25.051 62.268 55.646 85.333 90.453-31.91-13.948-65.69-23.148-100.267-27.307z" />
<glyph unicode="&#xe94c;" glyph-name="visibility-off" d="M665.715 201.95c-45.828-13.001-96.969-20.617-153.715-20.617-290.135 0-433.781 199.113-469.333 298.667 18.591 52.049 66.726 131.311 149.892 195.104l-94.725 94.726 60.34 60.34 704.001-704-60.339-60.339-136.119 136.119zM594.304 273.361l-78.69 78.69c-1.203-0.034-2.406-0.051-3.614-0.051-70.686 0-128 57.306-128 128 0 1.207 0.017 2.411 0.050 3.614l-130.48 130.479c-58.958-42.473-97.245-94.132-117.882-134.093 42.354-82.027 159.073-213.333 376.312-213.333 29.235 0 56.644 2.377 82.304 6.694zM981.333 480c-19.678-55.104-72.469-140.71-164.894-206.17l-61.47 61.47c67.802 44.224 110.959 101.346 133.342 144.7-42.355 82.026-159.070 213.333-376.311 213.333-37.696 0-72.363-3.954-104.146-10.918l-69.531 69.53c50.802 16.689 108.551 26.721 173.677 26.721 290.133 0 433.779-199.111 469.333-298.667zM640 480c0-9.229-0.977-18.227-2.833-26.901l-152.064 152.069c8.678 1.856 17.668 2.832 26.897 2.832 70.686 0 128-57.307 128-128z" />
<glyph unicode="&#xe94d;" glyph-name="visibility-on" d="M135.69 448c42.347-82.027 159.072-213.333 376.31-213.333s333.965 131.307 376.311 213.333c-42.347 82.027-159.074 213.333-376.311 213.333s-333.963-131.307-376.31-213.333zM981.333 448c-35.554-99.554-179.2-298.667-469.333-298.667s-433.778 199.113-469.333 298.667c35.555 99.555 179.2 298.667 469.333 298.667s433.779-199.111 469.333-298.667zM640 448c0-70.694-57.306-128-128-128s-128 57.306-128 128c0 70.694 57.306 128 128 128s128-57.306 128-128z" />
<glyph unicode="&#xe94e;" glyph-name="warranty" d="M512 883.207c15.859 0 31.305-5 44.207-14.25l79.543-56.25 1.626-0.541h0.375l96.832-1.542c15.868-0.139 31.253-5.248 44.083-14.625 12.843-9.389 22.477-22.578 27.499-37.708l31.334-92.167 0.085-0.333 1.041-1.458 0.333-0.208 77.376-58.458 4.625-3.75c10.428-9.108 18.214-20.933 22.498-34.208 4.885-15.134 4.945-31.403 0.209-46.585l0.043-0.038-28.501-93.167-0.124-0.333v-1.835l0.124-0.333 28.459-93.086 1.583-5.747c3.119-13.53 2.496-27.721-1.792-41.003-4.902-15.159-14.37-28.425-27.123-37.914l-77.666-58.667c-0.495-0.346-0.909-0.862-1.084-1.459l-0.085-0.375-31.373-92.083 0.038-0.043c-5.022-15.13-14.66-28.318-27.499-37.709-12.83-9.378-28.254-14.443-44.126-14.583l0.043-0.043-97.207-1.54c-0.585 0.013-1.152-0.175-1.626-0.542l-0.29-0.209-79.253-56c-12.907-9.259-28.343-14.289-44.207-14.289-15.876 0-31.334 5.018-44.25 14.289l-79.5 56.209c-0.473 0.367-1.043 0.555-1.625 0.542h-0.375l-96.834 1.54c-15.855 0.149-31.263 5.257-44.083 14.626-12.841 9.391-22.475 22.579-27.5 37.709l-31.333 92.169-0.084 0.333c-0.176 0.602-0.55 1.114-1.041 1.459l-0.333 0.205-77.375 58.462-4.625 3.746c-10.43 9.109-18.214 20.937-22.5 34.21-4.895 15.168-4.978 31.501-0.209 46.707l28.459 93.086 0.125 0.333v1.835l-0.125 0.333-28.5 93.167 0.041 0.038c-4.738 15.181-4.675 31.45 0.209 46.585 4.898 15.172 14.365 28.462 27.125 37.958l77.667 58.667c0.492 0.342 0.906 0.859 1.083 1.458l0.084 0.375 31.333 92.125 2.125 5.583c5.379 12.784 14.142 23.912 25.375 32.125 12.82 9.369 28.228 14.477 44.083 14.625l97.208 1.542 1.625 0.541 0.292 0.208 79.209 56.042c12.911 9.263 28.382 14.25 44.25 14.25zM510.874 809.915c-0.358-0.122-0.691-0.307-0.998-0.541l-0.252-0.167-79.249-56c-12.561-9.047-27.582-13.939-43.041-14.042l0.041-0.042-97.125-1.542c-0.766 0.013-1.536-0.206-2.167-0.667-0.631-0.463-1.1-1.144-1.333-1.917l-0.083-0.291-31.333-92.167-0.042 0.042c-4.866-14.746-14.141-27.602-26.583-36.833l0.042-0.042-77.667-58.667c-0.642-0.451-1.126-1.105-1.375-1.875-0.122-0.381-0.211-0.771-0.208-1.167l0.208-1.208 0.083-0.25 28.5-93.124c4.663-14.784 4.606-30.63-0.041-45.419l0.041-0.043-28.583-93.414c-0.263-0.768-0.249-1.604 0-2.377 0.127-0.393 0.302-0.759 0.542-1.084l0.833-0.789 0.208-0.166 77.458-58.5c12.448-9.229 21.712-22.089 26.583-36.834l31.333-92.169 0.083-0.29 0.542-1.084c0.225-0.316 0.522-0.606 0.833-0.832 0.624-0.452 1.37-0.678 2.125-0.666h0.291l96.833-1.502c15.453-0.102 30.441-5.043 42.999-14.084l79.458-56.209 1.041-0.542c0.363-0.119 0.742-0.205 1.126-0.205 0.768 0 1.54 0.273 2.167 0.747l0.209 0.166 79.206 56.043c12.553 9.045 27.593 13.969 43.042 14.084l97.126 1.502 1.122 0.166c0.367 0.115 0.725 0.269 1.041 0.499 0.636 0.461 1.101 1.143 1.335 1.916l0.085 0.29 31.33 92.169c4.868 14.733 14.153 27.61 26.586 36.834l77.666 58.667 0.832 0.789c0.239 0.324 0.414 0.691 0.542 1.084 0.247 0.772 0.265 1.613 0 2.377l-0.081 0.247-28.501 93.129c-4.655 14.793-4.629 30.707 0.043 45.5l28.54 93.374 0.209 1.208c0 0.396-0.085 0.786-0.209 1.167-0.247 0.77-0.734 1.424-1.374 1.875l-0.209 0.166-77.414 58.458-4.501 3.625c-10.202 8.852-17.86 20.335-22.127 33.25l-31.33 92.167-0.085 0.291c-0.235 0.774-0.742 1.454-1.374 1.917-0.623 0.45-1.37 0.677-2.125 0.667h-0.294l-96.832 1.5c-15.458 0.111-30.485 5.072-43.042 14.125l-79.415 56.167c-0.623 0.474-1.399 0.75-2.167 0.75l-1.126-0.208zM719.377 442.125c-2.645 35.968-14.502 70.746-34.5 100.874-22.857 34.417-55.351 61.207-93.333 77.042-37.986 15.833-79.765 19.986-120.085 11.916-40.32-8.071-77.376-27.985-106.458-57.25-29.084-29.271-48.89-66.594-56.917-107.209-8.025-40.614-3.91-82.705 11.834-120.96 15.744-38.246 42.396-70.921 76.583-93.914 34.194-22.993 74.386-35.294 115.5-35.294l10.291 0.294c51.362 2.615 100.117 24.294 136.666 61.082 38.985 39.236 60.894 92.45 60.958 147.959l-0.538 15.458zM644.002 543.249c9.647-0.422 18.739-4.687 25.246-11.835l2.253-2.748c2.138-2.871 3.861-6.037 5.082-9.417 1.63-4.506 2.377-9.297 2.167-14.084-0.209-4.779-1.365-9.493-3.375-13.833-1.51-3.255-3.499-6.251-5.875-8.917l-2.5-2.543-173.666-160.205c-5.030-4.638-11.243-7.748-17.873-9.003l-6.711-0.623-2.082 0.038c-4.855 0.282-9.596 1.557-13.956 3.712-3.273 1.613-6.281 3.708-8.917 6.208l-2.5 2.624-87.168 101.001c-3.117 3.605-5.528 7.808-7.042 12.331-1.521 4.553-2.12 9.382-1.792 14.17 0.329 4.783 1.583 9.455 3.709 13.747 2.128 4.301 5.099 8.137 8.708 11.294 3.607 3.149 7.795 5.559 12.333 7.083 4.542 1.523 9.348 2.138 14.125 1.792 4.774-0.346 9.434-1.634 13.708-3.793 4.261-2.15 8.051-5.129 11.167-8.747l62.625-72.585 146.167 134.749 2.748 2.333c6.694 5.049 14.972 7.619 23.42 7.25zM792.627 426.667c0-155.665-125.824-282.377-280.627-282.377s-280.625 126.707-280.625 282.377c0 155.668 125.821 282.374 280.625 282.374s280.623-126.711 280.627-282.374z" />
<glyph unicode="&#xe94f;" glyph-name="whatsapp" d="M701.44 378.884c-9.387 4.693-57.6 28.16-66.56 31.573s-15.36 4.693-21.76-5.12c-6.4-9.813-25.173-31.573-31.147-37.973s-11.093-7.253-20.907 0c-28.791 11.157-55.373 27.337-78.507 47.787-21.717 18.752-40.55 40.606-55.893 64.853-5.973 9.813 0 14.933 4.267 20.053s9.813 11.093 14.507 16.64c3.972 4.949 7.275 10.398 9.813 16.213 1.498 2.596 2.287 5.539 2.287 8.535s-0.789 5.939-2.287 8.533c-2.56 4.693-21.76 52.48-30.293 71.68s-16.213 16.213-21.76 16.213l-19.2 0.853c-4.913-0.169-9.744-1.312-14.212-3.363s-8.484-4.969-11.815-8.584c-11.019-10.392-19.747-22.971-25.624-36.931s-8.776-28.992-8.509-44.136c3.167-36.524 17.128-71.276 40.107-99.842 40.497-63.548 98.202-114.295 166.4-146.347 99.413-38.827 99.413-25.6 117.333-23.893 13.7 2.146 26.773 7.219 38.336 14.878 11.558 7.659 21.333 17.719 28.651 29.495 6.426 14.46 8.358 30.511 5.547 46.080-2.133 5.547-8.96 7.68-18.773 12.8zM519.253 853.339c-52.066 0.224-103.669-9.823-151.849-29.567s-91.992-48.798-128.929-85.497c-36.937-36.699-66.272-80.323-86.327-128.375s-30.435-99.586-30.547-151.657c-0.217-71.774 19.423-142.212 56.747-203.52l-71.68-213.333 220.16 69.973c59.177-31.616 125.333-47.898 192.427-47.36 52.949-1.741 105.707 7.185 155.136 26.249 49.429 19.059 94.519 47.868 132.591 84.706 38.071 36.843 68.343 80.96 89.020 129.737s31.33 101.214 31.33 154.189c0 52.979-10.654 105.415-31.33 154.191s-50.948 92.896-89.020 129.737c-38.071 36.84-83.162 65.647-132.591 84.708s-102.187 27.986-155.136 26.246v-0.427zM519.253 128.004c-65.353 0.038-129.268 19.17-183.893 55.040l-128-42.667 42.667 123.307c-41.494 56.393-63.914 124.548-64 194.56-0.507 66.266 18.679 131.191 55.126 186.536s88.51 98.618 149.587 124.329c61.075 25.711 128.416 32.702 193.47 20.085s124.898-44.272 171.938-90.95c47.036-46.678 79.151-106.276 92.267-171.235 13.116-64.956 6.643-132.343-18.598-193.617s-68.113-113.668-123.179-150.537c-55.061-36.873-119.834-56.555-186.103-56.559l-1.28 1.707z" />
<glyph unicode="&#xe950;" glyph-name="youtube" d="M920.751 653.227c-4.881 18.095-14.426 34.594-27.678 47.846s-29.747 22.795-47.842 27.674c-66.133 17.92-333.227 17.92-333.227 17.92s-267.095 0-333.228-17.92c-18.095-4.879-34.594-14.422-47.846-27.674s-22.795-29.751-27.674-47.846c-12.368-67.699-18.368-136.41-17.92-205.227-0.448-68.817 5.552-137.527 17.92-205.227 4.879-18.095 14.422-34.594 27.674-47.846s29.751-22.793 47.846-27.674c66.133-17.92 333.228-17.92 333.228-17.92s267.093 0 333.227 17.92c18.095 4.881 34.59 14.421 47.842 27.674s22.797 29.751 27.678 47.846c12.365 67.699 18.364 136.41 17.92 205.227 0.444 68.817-5.555 137.527-17.92 205.227zM426.671 320v256l221.44-128-221.44-128z" />
<glyph unicode="&#xe951;" glyph-name="zap" d="M577.835 826.587c12.881 12.295 29.73 19.785 47.629 21.177s35.733-3.401 50.423-13.553c14.69-10.151 25.314-25.024 30.046-42.054 4.727-17.030 3.264-35.148-4.143-51.229l-77.619-167.869h107.985c79.859 0 119.33-95.461 62.054-150.215l-373.344-357.141c-11.859-11.349-27.754-17.698-44.303-17.702h-15.361c-10.431 0-20.701 2.526-29.906 7.347-9.205 4.826-17.061 11.802-22.876 20.314s-9.41 18.304-10.468 28.506c-1.059 10.202 0.452 20.501 4.399 29.995l78.586 188.868h-110.427c-79.857 0-119.328 95.462-62.055 150.217l369.38 353.341zM631.087 772.881l-369.529-353.391c-1.815-1.737-3.060-3.972-3.575-6.413s-0.276-4.975 0.687-7.283c0.962-2.304 2.604-4.275 4.713-5.658s4.591-2.112 7.127-2.099h167.242c6.259 0 12.425-1.515 17.946-4.412 5.521-2.893 10.236-7.083 13.722-12.19 3.49-5.107 5.645-10.982 6.281-17.105 0.631-6.123-0.277-12.301-2.645-17.997l-87.132-209.425 355.139 339.691c1.809 1.737 3.055 3.964 3.571 6.4s0.282 4.966-0.674 7.27c-0.96 2.304-2.59 4.275-4.693 5.662s-4.578 2.125-7.108 2.116h-167.241c-6.383 0-12.663 1.574-18.266 4.578s-10.351 7.339-13.807 12.612c-3.456 5.278-5.513 11.319-5.978 17.574-0.465 6.258 0.67 12.53 3.307 18.243l102.289 221.225c-0.047 0.158-0.115 0.31-0.201 0.45l-0.307 0.3-0.405 0.050c-0.154 0-0.307-0.1-0.461-0.2z" />
</font>
</defs>
</svg>
